Youtube エロ動画

youtube エロ動画

youtube エロ動画



即再生可能な「YouTube」のヌケるエロ動画が123件あります。全動画無料で、当サイト内ですぐに再生可能です。

YouTubeみたいに簡単に見ることができるエロ動画を紹介しています。もちろん全て無料です!

Watch Youtube porn videos for free, here on Pornhub.com. Discover the growing collection of high quality 関連の XXX movies and clips. No other sex tube is more popular and features more Youtube scenes than Pornhub! Browse through our impressive selection of …

YouTube系エロ無料動画で可愛い!!セクシー!!から超エロエロ!!まで皆で楽しもう♪ adaruto 最高!!

エロ動画が満載!動画エロタレストはエロ動画のまとめアンテナサイトです。キーワードやタグ、再生時間などで絞込みができるので、無料エロ動画がすぐ見つかります。

youtubeのエロ動画一覧! - youtubeのエロ動画を24時間更新!エロビデオネットはyoutubeのエロ動画を簡単検索できます。極上のエロ動画を無料で配信中!好きなカテゴリーの動画やAV女優を見つけてく …

fc2動画は検索も視聴も無料の動画コンテンツ。誰でも投稿ができます。スマホで撮影したムービーも簡単アップロード。fc2ブログなど自分のサイトに設置もできます

女性が選ぶ、女の子のための女性向けエッチ動画。いつでも無料で安全に安心して見られるように、fc2動画、xvideosなどの動画共有サイトのアダルトエロ動画など、女性向けのセックスに関するコンテンツを中心に紹介しています。女の子が、もっと気軽に罪悪感なく、安心してアダルトエロ ...

Get YouTube TV Best of YouTube Music Sports Gaming Movies & Shows News Live Fashion Learning Spotlight 360° Video ... エロ動画 大迫辰巳; 21 videos ...

 · 【大興奮】PSVRでVRエロ動画見たらとんでもないことになったwwwww - Duration: 5:03. gsxbc813 250,574 views. 5:03

youtube エロ動画 - ワンリンクダウンロード

ここから無料でダウンロード -> youtube エロ動画.

https://whcqjn.58ks.ru
https://whcqjn.mamasovetuet.ru
https://whcqjn.mb7707.ru

youtube エロ動画 Comments:
ゲスト

Press [q] to stop, [?] for help frame= 239 fps=0.0 q=-1.0 size= 231kB time=00:00:07.89 bitrate= 239.6kbits/ frame= 314 fps=248 q=-1.0 size= 318kB time=00:00:10.40 bitrate= 250.4kbits/ frame= 437 fps=247 q=-1.0 size= 482kB time=00:00:14.50 bitrate= 272.3kbits/Эта страница отображается в тех случаях, когда автоматическими системами Google регистрируются исходящие из вашей сети запросы, которые нарушают Условия использования. Страница перестанет отображаться после того, как эти запросы прекратятся. До этого момента для использования служб Google необходимо проходить проверку по слову.Источником запросов может служить вредоносное ПО, подключаемые модули браузера или скрипт, настроенный на автоматических рассылку запросов. Если вы используете общий доступ в Интернет, проблема может быть с компьютером с таким же IP-адресом, как у вас. Обратитесь к своему системному администратору. Подробнее.サイト内関連2: Windows Update が失敗する、エラーが出る.Источником запросов может служить вредоносное ПО, подключаемые модули браузера или скрипт, настроенный на автоматических рассылку запросов. Если вы используете общий доступ в Интернет, проблема может быть с компьютером с таким же IP-адресом, как у вас. Обратитесь к своему системному администратору. Подробнее.SDカードを購入する必要がない.・放送情報 TOKYO MX:7/7(金) 24:00~ とちぎテレビ:7/7(金) 24:00~ 群馬テレビ:7/7(金) 24:00~ BS11:7/7(金) 24:00~ MBS:7/7(金) 27:10~ ファミリー劇場:7/9(日) 24:20~ ※1週目は放送直前スペシャル番組.あらすじ 小学生の頃、両親が事故死して叔父の家に引き取られた日野秋晴は、ある日テレビで見かけた元女子校で超名門高校・白麗陵学院に新設された従育科コースへの編入を決意、試験に合格して入学を果たす。 しかし、目つきの悪さ、左眉の傷跡、逆立てた茶髪、耳の三連ピアス(安全ピン)というヤンキーな外見で、生徒達を怖がらせてしまう。今なら30日間の無料期間があり、 無料期間内に解約すれば料金を請求されることはない ので、新規のユーザーが利用しやすくなっています。登録の際に決済方法を選択しますが、これは、無料期間を過ぎると自動的に有料会員に移行するためのものなので、継続しない場合は、解約を忘れないようにしてください。3つのダイナミックな仕掛けで、ゴージャスな人生を謳歌しよう.無料ソフトでアニメを作ってみよう(9VAe きゅうべえ)コントローラーをコンピュータにUSB接続します。 次に、コントローラーの出力方式をスライダー方式に切り替える操作を行います。 まず、コントローラー右側面のボタンを2秒以上長押しして下さい。コントローラー上部が青色に光っている場合、マウス入力が選択されているので、側面ボタンを押したままでスタートボタンを押し、スライダー方式(紫色)に切り替えて下さい。 側面ボタンを長押しした際にはじめから紫色に光っている場合は、既にスライダー方式が選択されているため、切り替えは不要です。17位:OTOTOYアプリ.安全に使用するための注意点.

Calendar
MoTuWeThFrStSu
+28
°
C
H: +17°
L: +
Belu
Monday, 16 April
See 7-Day Forecast
Wed Thu Fri Sat Sun Tue
+29° +23° +23° +22° +20° +17°
+17° +11° +12° +11° +11° +10°