歌謡 曲 無料 ダウンロード

歌謡 曲 無料 ダウンロード

歌謡 曲 無料 ダウンロード



歌謡曲=演歌なんですか ??? 歌謡曲と演歌は同じ意味ですか? 歌謡曲と演歌とムード歌謡の違いを教えてください。 歌謡曲や演歌のルーツは何ですか? 歌謡曲の発売年代を知るサイト歌謡曲、演歌等の世間に出た年代のサイトを探してい...

演歌・歌謡曲の歌手特集! ~昭和の名曲から最新曲まで~

全部無料!懐かしい演歌名曲大全集。思い出のメロデイ(懐メロ)、青春時代に流行った大ヒット演歌の名曲約3000曲を収録。ぜひ楽しんで下さい(カラオケ人気曲ばかり)。 [機能] すべての機能が全部無料です! 簡単操作!誰でも簡単に使えます! 好きだなと思った曲をお気に入りに入れて、 いつ ...

Amazon.co.jp: 昭和の歌謡曲演歌 無料アプリ~カラオケとして楽しめる高齢者向け~: Android アプリストア

MEmuエミュレータを使いPCで演歌 人気歌謡 - 完全無料 人気歌謡曲をダウンロードする。大画面でのゲームプレイを快適に楽しむ。 シンプルで簡単な操作で誰でも利用することができます。

無料の音楽をダウンロードする60個もの音楽をダウンロードする Androidアプリをおすすめランキング順で掲載。みんなのアプリの評価と口コミ・レビューも豊富!定番から最新アプリまで網羅。

この記事で,様々なサイトで無料でネットから音楽をダウンロードしてPCに保存する方法をご紹介.パソコン音楽ダウンロードソフト,オンライン音楽ダウンロードサイトなどのパソコンに音楽を無料ダウンロードする方法だけではなく,またはYouTubeからパソコンに音楽ダウンロードできる方法も!

演歌・歌謡曲、歌手別メロディ譜特集 カラオケ練習などには お手軽なメロディ譜がおすすめ! 歌のメロディの楽譜データを、1曲からダウンロードで購入できます。

GenkiOrangeSoftが開発したAndroidの昭和の歌謡曲 完全無料 1.0.3が、0 日本円でダウンロードできます。

歌謡曲 デジタルミュージック mp3の通販ならAmazon.co.jp(アマゾン)。配送無料(一部を除く)。歌謡曲 デジタルミュージック mp3はじめ、本や家電、ファッション、食品、ベビー用品まで一億点以上の商品を毎日お安く求めいただけます。

歌謡 曲 無料 ダウンロード - ワンリンクダウンロード

ここから無料でダウンロード -> 歌謡 曲 無料 ダウンロード.

https://wxvqzr.dark-webstudio.ru
https://wxvqzr.centrneva.ru
https://wxvqzr.bosnia-travel.ru
https://wxvqzr.58ks.ru
https://wxvqzr.mamasovetuet.ru

歌謡 曲 無料 ダウンロード Comments:
ゲスト

他社との比較.アンインストール後、マイクロソフトで新たにデスクトップ版を手順通りにインストールしようとしましたが、 出現するはずの『 インストールする 』ボタンが出てこなくて先に進めなくなりました。Download Eclipse Technology that is right for you.ダウンロードと印刷の手順.iPhone6S iPhone6S Plus iPhone7 iPhone7 Plus iPhone8 iPhone8 Plus iPhoneX iPhoneXR iPhoneXS iPhoneXS Max iPhone11 iPhone11 Pro iPhone11 Pro Max.プロジェクトの説明.上原亜衣が引退後現在のプライベートSEX事情を暴露|流出動画あり.目次1 医療費控除におけるタクシー代の書き方についてくわしく解説します2 医療費控除においてタクシー代を書く場合、領収書がある場合と無い場合は変わる? 医療費控除におけるタクシー代の書き方についてくわしく解説します &n […]Press [q] to stop, [?] for help frame= 239 fps=0.0 q=-1.0 size= 231kB time=00:00:07.89 bitrate= 239.6kbits/ frame= 314 fps=248 q=-1.0 size= 318kB time=00:00:10.40 bitrate= 250.4kbits/ frame= 437 fps=247 q=-1.0 size= 482kB time=00:00:14.50 bitrate= 272.3kbits/11位:ListMusic – 音楽聴き放題!カートリッジのサイズは 3DS と比べても、ほとんど同じ大きさです。Wii や Wii U のようなディスクでないため、複数本持ち歩くのも苦にはなりません。カートリッジを取り替えるのが手間でなければ、SD カードを使わなくても何も問題ないでしょう。Photoshop無料.サポートや使い方について: 公式サイトでよくある質問が公開されています。公式のコミュニティなどはありません。 ソフトウェアには、簡単なヘルプが付属しています。 10年以上の歴史を持つため、イラストメイキングや使い方を解説する書籍が豊富にありますが、新しいものは少ないです。WEB上にイラストメイキングなどが豊富に公開されています。インストール時のインストールに関する質問またはエラー.

Calendar
MoTuWeThFrStSu
+28
°
C
H: +17°
L: +
Belu
Monday, 16 April
See 7-Day Forecast
Wed Thu Fri Sat Sun Tue
+29° +23° +23° +22° +20° +17°
+17° +11° +12° +11° +11° +10°